They Shall Not Grow Old (1280x720p HD, 50fps, soft Eng subs)


    Seeders : 19      Leechers : 7

Hash :7BC9275C52ACDBD5594365F28537DAF3FF997284
Added :Last Month in TV shows
Size :3.28 GB
Stream :Watch Full Movie Online @ Movie4u
Share :








Before you download or do Anything online: PLEASE Protect your Online Privacy.
Your IP Address is 95.181.218.117.   And Location is United States, Orlando
Your Internet Service Provider and Government can track your torrent Activity!  Hide your IP ADDRESS with a VPN!
We Strongly Recommend Using Best Cheapest VPN to Anonymize your Torrenting.

Note :

Please Update (Trackers Info) Before Start Torrents Downloading to See Updated Seeders And Leechers for Batter Download Speed.

Trackers List

Tracker NameLast CheckStatusSeedersLeechers
udp://tracker.pirateparty.gr:6969/announceLast Monthsuccess197
udp://tracker.coppersurfer.tk:6969/announceLast Monthsuccess197
udp://open.stealth.si:80/announceLast Monthsuccess197
udp://tracker.coppersurfer.tk:80/announceLast Monthsuccess197
udp://tracker.vanitycore.co:6969/announceLast Monthsuccess177
udp://tracker.tiny-vps.com:6969/announceLast Monthsuccess154
udp://9.rarbg.to:2710/announceLast Monthsuccess72
udp://public.popcorn-tracker.org:6969/announceLast Monthsuccess73
udp://tracker.opentrackr.org:1337/announceLast Monthsuccess62
udp://bt.xxx-tracker.com:2710/announceLast Monthsuccess63
udp://tracker.internetwarriors.net:1337/announceLast Monthsuccess63
udp://tracker.port443.xyz:6969/announceLast Monthsuccess53
udp://ipv4.tracker.harry.lu:80/announceLast Monthsuccess24
udp://tracker.cyberia.is:6969/announceLast Monthsuccess00
udp://exodus.desync.com:6969/announceLast Monthsuccess00
http://share.camoe.cn:8080/announceLast Monthsuccess00
udp://tracker.justseed.it:1337/announceLast Monthsuccess00
udp://tracker.torrent.eu.org:451/announceLast Monthsuccess00
udp://tracker.torrent.eu.org:451Last Monthsuccess00



Torrent File Content (7 files)


They Shall Not Grow Old
     About this torrent.txt -
2.7 KB

     If this torrent is dead.txt -
139 bytes

     They Shall Not Grow Old.jpg -
986.86 KB

     They Shall Not Grow Old.mp4 -
3.28 GB

     They Shall Not Grow Old.srt -
241.65 KB

     Torrent Downloaded From 1337x.to.txt -
0 bytes

     [TGx]Downloaded from torrentgalaxy.org .txt -
566 bytes



Description



They Shall Not Grow Old (1280x720p HD, 50fps, soft Eng subs)

Employing state-of-the-art technology to transform audio and moving image archive footage more than a century old, Peter Jackson brings to life the people who can best tell the story of World War I: the men who were there.

Driven by a personal interest in the conflict, Jackson sets out to explore the day-to-day experience of its combatants. Immersed for months in the BBC and Imperial War Museum archives, Jackson created narratives and strategies regarding how this story should be told. Using only the voices of those involved, the film explores the reality of war on the front line: their attitudes to the conflict, how they ate, rested and formed friendships in those moments between battles, as well as their hopes and dreams for the future. Each frame of the film has been hand-colourised by Jackson's team, the footage 3D-digitised, transformed with modern post-production techniques, enabling these soldiers to walk and talk among us.

Reaching into the mists of time, Jackson aims to give these men voices, investigate the hopes and fears of these veterans that survived and were able to tell their stories, and detail the humility and humanity of those who represented a generation forever changed by the destruction of a global war.

First broadcast: 11 November 2018
Duration: 90 minutes

Torrent dead? Request reseed at 1337x.to or torrentgalaxy.org - or ask at elsonroa at tutanota.com



Media info:-
General
Format : MPEG-4
Format profile : Base Media
Codec ID : isom (isom/iso2/avc1/mp41)
File size : 3.28 GiB
Duration : 1h 35mn
Overall bit rate mode : Variable
Overall bit rate : 4 942 Kbps
Writing application : Lavf57.83.100

Video
ID : 1
Format : AVC
Format/Info : Advanced Video Codec
Format profile : [email protected]
Format settings, CABAC : Yes
Format settings, ReFrames : 4 frames
Codec ID : avc1
Codec ID/Info : Advanced Video Coding
Duration : 1h 35mn
Bit rate : 4 617 Kbps
Width : 1 280 pixels
Height : 720 pixels
Display aspect ratio : 16:9
Frame rate mode : Constant
Frame rate : 50.000 fps
Color space : YUV
Chroma subsampling : 4:2:0
Bit depth : 8 bits
Scan type : Progressive
Bits/(Pixel*Frame) : 0.100
Stream size : 3.06 GiB (93%)
Encoded date : UTC 1904-01-01 00:00:00
Tagged date : UTC 1904-01-01 00:00:00
Color range : Limited
Color primaries : BT.709
Transfer characteristics : BT.709
Matrix coefficients : BT.709

Audio
ID : 2
Format : AAC
Format/Info : Advanced Audio Codec
Format profile : LC
Codec ID : 40
Duration : 1h 35mn
Bit rate mode : Variable
Bit rate : 320 Kbps
Channel(s) : 2 channels
Channel positions : Front: L R
Sampling rate : 48.0 KHz
Frame rate : 46.875 fps (1024 spf)
Compression mode : Lossy
Stream size : 216 MiB (6%)
Language : English


Related torrents

Torrent NameAddedSizeSeedLeechHealth
Last Month - in TV shows1.89 GB83129
Last Month - in TV shows3.21 GB2329
Last Month - in TV shows10.49 GB46
2 months ago - in TV shows2.1 GB00
2 months ago - in TV shows3.29 GB21
3 months ago - in TV shows1.07 GB11

Note :

Feel free to post any comments about this torrent, including links to Subtitle, samples, screenshots, or any other relevant information. Please Dont Download anything from Comments, And Links to Streaming Sites like Watch Online They Shall Not Grow Old (1280x720p HD, 50fps, soft Eng subs) Full Movie, Fmovies, 123Movies, Putlocker, Netflix, etc.

Comments (0 Comments)




Please login or create a FREE account to post comments

Latest Searches